#TITLE:Hey! Don't Bring Me Down;
#SUBTITLE:;
#ARTIST:TVXQ;
#TITLETRANSLIT:Hey! Don't Bring Me Down;
#SUBTITLETRANSLIT:;
#ARTISTTRANSLIT:Dong Bang Shin Ki;
#CREDIT:;
#BANNER:DBMD-bn.jpg;
#BACKGROUND:;
#LYRICSPATH:;
#CDTITLE:;
#MUSIC:Don't bring me down.mp3;
#OFFSET:0.000;
#SAMPLESTART:127.020;
#SAMPLELENGTH:20.000;
#SELECTABLE:YES;
#DISPLAYBPM:85.000;
#BPMS:0.000=85.000,15.750=170.000,16.500=85.000,19.000=47.500,19.250=85.000,20.000=85.000,20.750=170.000,22.250=85.000,63.500=170.000,64.500=85.000,83.500=170.000,85.500=85.000,86.250=339.999,87.500=85.000,96.000=339.999,96.750=127.500,102.000=85.000,102.500=170.000,104.500=85.000,105.250=170.000,105.875=42.500,106.000=85.000,119.500=170.000,183.500=85.000,211.000=42.500,212.500=170.000,213.500=85.000,216.500=170.000,218.500=85.000,227.250=170.000,227.500=127.500,233.500=85.000;
#STOPS:15.813=0.060
,15.938=0.020
,15.938=0.040
,16.125=0.100
,16.375=0.080
,20.250=0.080
,20.875=0.100
,21.125=0.100
,21.375=0.100
,21.625=0.100
,21.875=0.100
,22.125=0.100
,63.625=0.100
,63.875=0.100
,64.125=0.100
,64.375=0.100
,86.625=0.300
,87.250=0.300
,96.375=0.220
,105.250=0.140
,227.375=0.080
;
#BGCHANGES:;
// cache tags:
#FIRSTBEAT:0.000;
#LASTBEAT:262.000;
#SONGFILENAME:Songs/Music V.I.P ^_^/Hey! Don't Bring Me Down/Don't bring me down.sm;
#HASMUSIC:1;
#HASBANNER:1;
#MUSICLENGTH:161.052;
// end cache tags

//---------------dance-single - ----------------
#NOTES:
     dance-single:
     :
     Hard:
     11:
     1.000,1.000,1.000,0.205,0.938,688.000,400.000,33.000,0.000,91.000:
1001
0110
1001
0110
0000
0000
0000
0000
1001
1001
1001
0110
0000
0110
0110
0000
,
1111
0001
0001
0001
1110
0001
0001
1110
0001
0001
1110
0001
1110
0001
0001
0001
,
1110
1000
1000
1000
0111
1000
1000
0111
1000
1000
0111
1000
0111
1000
0010
0010
,
1101
0000
0010
0000
0010
0000
0010
0000
1101
0000
0010
0000
0010
0000
1101
0000
0010
0000
0010
0000
1101
0000
0010
0000
1101
0000
0010
0000
0010
0000
1001
1001
,
0110
0000
0110
0000
1001
0000
0000
0000
0110
0000
0000
0000
0110
0000
1001
0000
0110
0000
0000
0000
1001
0000
0000
0000
0110
0110
1001
0000
0000
0000
1001
0000
,
1001
1001
0000
0010
0100
0010
0001
1000
0001
0000
0101
0000
0010
0000
0111
0000
,
1001
0000
1110
0000
0110
0110
0110
1001
1001
0000
0110
0000
0101
0000
1110
0011
,
0011
0000
1110
0000
0011
0011
0011
0110
1100
0000
1100
0000
1100
0000
1101
1101
,
1101
0000
0000
0000
1100
0010
0100
0010
1100
0000
1001
0010
0101
0010
1001
0000
0101
0010
0100
0010
0101
0010
0100
0000
1001
0000
0000
0000
1011
0000
0000
0000
,
0000
0000
0111
0000
0000
1100
0000
0000
1100
0000
0111
0000
0000
0000
1100
0000
,
0000
0000
0111
0000
0000
0011
0000
0000
0011
0000
1110
0000
0000
0000
1100
0000
,
0100
0000
0110
0000
1000
0011
1100
0000
0010
0000
0110
0000
0100
0000
1100
1100
,
1100
0000
0000
0000
1110
0000
0000
0000
0000
0000
0011
0000
0000
0000
0000
0000
0110
0000
0000
0000
1111
0000
0000
0000
0000
0000
0110
0000
0110
0000
0000
0110
,
0000
0110
0000
0000
1101
0000
0010
0000
0001
0000
1010
0000
0100
0000
0001
0000
1100
0000
0100
0000
1011
0000
0010
0000
0100
0000
0110
0000
0110
0000
0000
0110
,
0000
0110
0000
0000
1011
0000
0100
0000
0010
0000
1100
0000
0001
0000
0100
0000
1001
0000
0010
0000
0111
0000
1000
0000
0100
0000
0000
0000
1001
0000
0110
0000
,
1001
0110
0110
0000
1000
0100
0001
1000
0010
0100
1011
0000
0001
0000
1100
0011
,
1100
0000
0011
0000
1100
0000
0000
0000
0011
0000
1000
1000
0010
1000
0001
0100
0001
0010
0001
0001
1100
0000
1100
0000
0000
0000
0000
0000
0101
0000
0101
0000
,
0101
0010
1110
0000
0010
1001
0010
0001
0110
1000
1101
0000
1000
0000
0111
0000
,
1010
0000
0000
0000
0000
0000
0000
0000
0101
0000
0000
0000
1000
0000
0000
0000
1000
0000
0000
0000
1010
0000
0000
0000
0000
0000
0000
0000
0000
0000
0000
0000
1002
0000
0000
0000
0000
0000
0000
0003
1112
0000
0000
0000
0000
0000
0000
0000
0000
0000
0000
0000
0000
0000
0000
0000
1013
0000
0000
0000
0110
0000
0000
0000
,
1010
0010
0111
1000
0001
1100
0010
1000
0110
0001
1101
0010
0100
0001
1012
1010
,
1010
0000
0000
0000
0100
0000
0000
0003
1112
0000
0000
0000
0100
0000
0000
0000
0010
0000
0000
0000
1100
0000
0000
0000
0100
0000
0000
0000
1000
0000
0000
0003
1012
0000
0000
0000
0100
0000
0000
0000
1113
0000
0000
0000
0001
0000
0000
0000
1010
0000
0000
0000
0110
0000
0000
0000
0220
0000
0000
0000
0000
0000
0000
0000
,
0000
0000
0000
0000
0000
0000
1331
0000
0000
0110
0000
0000
0110
0000
0110
0000
,
0000
0000
1010
0101
0101
0110
1010
0000
0110
0001
1010
1000
0101
0001
1102
0000
,
0000
0000
1103
1100
1100
1100
0110
0110
0110
0110
0011
0011
0011
0011
1001
0110
,
1001
0000
0000
0000
0000
0000
0011
0000
0000
0110
0000
0000
1001
0000
0000
0101
0000
0000
1010
0000
0000
1001
0000
0000
1100
0000
0000
0011
0000
0000
0110
0000
,
0000
1010
0000
0000
1001
0000
0000
0101
0000
0000
0022
0000
0000
0000
0000
0000
0000
0000
0000
0000
2233
0000
0000
0000
0000
0000
0000
0000
0000
0000
0000
0000
,
0000
0000
0000
0000
0000
0000
0000
0000
3311
0000
0000
0000
0000
0000
0000
0000
0000
0000
0000
0000
1001
0000
0000
0000
0000
0000
0000
0000
0000
0000
0000
1001
0000
0000
0000
0000
0000
0000
0000
0000
1001
0000
0000
0000
0000
0000
0000
0000
0000
0000
0000
0000
0000
0000
0000
0000
1000
0000
0000
0000
0100
0000
0000
0000
,
0010
0001
1101
0010
0100
1010
0100
0001
1010
0100
1011
0000
0000
0000
0101
0101
,
0101
0101
1010
1010
1010
1010
0101
0101
0101
0101
0101
0000
0000
0000
0011
0011
,
0011
1100
0101
1100
0011
0110
2200
0000
0000
0000
0000
0000
0000
0000
3310
0001
,
1000
0100
1000
0100
1000
0100
1011
0100
1000
0100
1000
0100
1000
0100
1001
0100
,
1000
0100
1001
0100
1000
0100
1011
0100
1000
0100
1000
0100
1000
0100
1011
0100
,
1000
0100
1000
0100
1000
0100
1011
0100
1000
0100
1000
0100
1020
0100
1001
0100
,
1000
0100
1001
0100
1000
0100
1031
0000
0000
0000
0000
0000
0000
0000
1010
0000
,
1010
1010
0000
0101
0000
0000
0011
0000
,
0000
0011
0000
0011
0000
0000
0000
1001
,
1001
1001
0000
0110
0000
0000
0110
0000
,
0000
0000
1001
0000
0000
0000
0110
0000
0000
0000
0000
0000
0000
0000
1101
0010
,
0001
0010
0001
0010
0001
0010
1101
0010
0001
0010
0001
0010
0001
0010
1001
0010
,
0001
0010
1001
0010
0001
0010
1101
0010
0001
0010
0001
0010
0001
0010
0101
1000
,
0001
1000
0100
0010
1000
0010
1001
0100
0001
1000
0101
0010
1000
0100
0011
1000
,
0100
0010
1000
0100
0010
0100
1001
0000
0000
0000
0000
0000
0000
0000
1100
0000
,
0000
0000
0000
1100
0000
0000
0011
0000
,
0000
0011
0000
0011
0000
0000
0000
1001
,
1001
1001
0000
0110
0000
0000
0000
1001
,
1001
0000
1001
0000
0000
0000
0110
0000
0000
0000
0000
0000
0000
0000
1001
0010
,
0100
0010
1001
0000
0010
0000
1001
0000
0010
0000
1001
0100
0010
0100
1001
0010
,
1000
0001
0110
1000
0001
0100
1010
0000
0002
0000
1010
0000
1013
0100
1010
0000
,
0000
0110
1001
0100
1010
0011
0000
0000
1010
0000
2101
0000
0000
0000
0101
0101
,
3101
0000
0011
0011
0000
0110
0110
0000
0000
1100
1100
1100
1100
0001
0100
1000
,
0100
0001
1010
0000
0000
0110
0000
0000
1001
0000
1001
0000
0000
0000
0011
0000
,
0000
0000
1100
0000
0000
0011
0000
0000
0110
0000
1100
0000
0101
0010
1001
0000
,
0000
0000
0110
0000
1001
0000
0100
0000
1010
0000
0101
0000
0000
0000
0000
0000
1001
0000
0000
0000
0101
0000
0000
0000
2000
0000
0011
0011
0011
0000
0000
0000
,
0000
0000
0000
0000
0000
0000
3011
0100
1000
0100
0022
0000
0000
0000
2233
0000
,
0000
0000
0000
0011
3300
0000
0000
0000
0000
0000
0000
0000
0011
0000
0000
0000
0000
0000
0000
0000
0011
0000
0000
0000
0000
0000
0000
0000
0010
0000
1000
0000
,
0001
0100
1010
0000
0001
0010
1000
0100
0010
0100
2000
0000
0000
0000
3101
0101
,
0101
0000
0101
0000
1010
0000
1010
0000
1010
0000
1010
0000
0101
0000
0101
0000
0101
0000
0101
0000
0000
0000
0011
0000
1100
0000
0110
0000
0011
0000
0000
0011
,
0000
0000
1100
0000
0000
0110
0000
0000
0011
0000
0000
1010
0000
0000
1100
0000
0000
1001
0000
0000
0110
0000
0000
0101
0000
0000
1010
0000
0000
0110
0000
0000
,
0220
0000
0000
0000
0000
0000
0000
0000
0000
0000
0000
0000
2332
0000
0000
0000
0000
0000
0000
0000
3223
0000
0000
0000
0000
0000
0000
1001
0330
0000
0000
0000
,
1001
0000
1001
0000
0000
0000
0001
0100
1000
0100
1001
0000
1000
0100
0001
0010
,
1000
0100
1001
0000
0000
0000
0011
0011
0011
0011
0110
0110
0110
0110
1100
1100
,
1100
0000
1100
0000
1100
0000
0000
0000
0000
0000
0000
0000
0001
0000
0010
0000
1000
0000
0100
0000
1001
0000
0100
0000
0010
0000
1002
1000
0010
0100
1000
0010
,
0100
1000
0010
1000
0100
0010
1000
0100
0100
0010
0010
0010
1103
0000
0000
0000
1100
0000
0000
0000
1100
0000
0000
0000
0000
0000
0011
0000
0000
0000
0000
0000
,
0011
0000
0000
0000
0101
0000
0000
0000
0000
0000
0000
0000
1100
0000
0000
0000
0000
0000
0000
0000
1100
0000
0000
0000
0100
0010
1102
0000
0000
0000
0000
0000
,
1100
0000
1100
0000
1103
0110
0022
0000
0000
0000
1133
0000
0000
0011
0000
0000
,
0011
0000
0011
0000
0000
0000
1011
1011
1011
0000
0000
0000
0000
0000
0000
0000
;

//---------------dance-single - ----------------
#NOTES:
     dance-single:
     :
     Medium:
     1:
     0.000,0.000,0.000,0.000,0.000,0.000,0.000,0.000,0.000,0.000:
0000
0000
0000
0000
;
